Allsports-tv.com

Deportes

AVISO LEGAL Esta página no contiene ningún tipo de fichero, todo está alojado en servidores totalmente ajenos a esta web, solo actuamos como intermediario ofreciendo enlaces enviados por nuestros usuarios y colaboradores.

Ciclismo - Omloop Het Nieuwsblad 2011 (Het Volk) Teledeporte

Comparte
avatar
thevpi
Amateur
Amateur

Cantidad de envíos : 256
Fecha de inscripción : 09/01/2010

Ciclismo - Omloop Het Nieuwsblad 2011 (Het Volk) Teledeporte

Mensaje por thevpi el Lun Feb 28, 2011 7:44 pm

Ciclismo - Omloop Het Nieuwsblad 2011 (Het Volk) Teledeporte

[Tienes que estar registrado y conectado para ver esa imagen]
[Tienes que estar registrado y conectado para ver esa imagen]
[Tienes que estar registrado y conectado para ver esa imagen]


MEDIA INFO


Spoiler:
Duration : 45mn 38s
Overall bit rate : 4 760 Kbps
Movie name : Avidemux
Writing application : Lavf52.61.0
Writing library : Lavf52.61.0

Video
ID : 1
Format : MPEG Video
Format version : Version 2
Format profile : Main@Main
Format settings, BVOP : Yes
Format settings, Matrix : Default
Codec ID : V_MPEG2
Codec ID/Info : MPEG 1 or 2 Video
Duration : 45mn 38s
Bit rate mode : Variable
Bit rate : 4 409 Kbps
Nominal bit rate : 9 800 Kbps
Width : 720 pixels
Height : 576 pixels
Display aspect ratio : 4:3
Frame rate : 25.000 fps
Standard : PAL
Color space : YUV
Chroma subsampling : 4:2:0
Bit depth : 8 bits
Scan type : Interlaced
Scan order : Top Field First
Compression mode : Lossy
Bits/(Pixel*Frame) : 0.425
Stream size : 1.41 GiB (93%)
Language : English

Audio
ID : 2
Format : MPEG Audio
Format version : Version 1
Format profile : Layer 2
Codec ID : A_MPEG/L2
Codec ID/Hint : MP2
Duration : 45mn 38s
Bit rate mode : Constant
Bit rate : 256 Kbps
Channel(s) : 2 channels
Sampling rate : 48.0 KHz
Compression mode : Lossy
Delay relative to video : -40ms
Stream size : 83.6 MiB (5%)



UPLOADER


emulansky



DOWNLOAD



[Tienes que estar registrado y conectado para ver este vínculo]
[Tienes que estar registrado y conectado para ver este vínculo]
[Tienes que estar registrado y conectado para ver este vínculo]
[Tienes que estar registrado y conectado para ver este vínculo]
[Tienes que estar registrado y conectado para ver este vínculo]
[Tienes que estar registrado y conectado para ver este vínculo]
[Tienes que estar registrado y conectado para ver este vínculo]
[Tienes que estar registrado y conectado para ver este vínculo]
[Tienes que estar registrado y conectado para ver este vínculo]
[Tienes que estar registrado y conectado para ver este vínculo]
[Tienes que estar registrado y conectado para ver este vínculo]
[Tienes que estar registrado y conectado para ver este vínculo]
[Tienes que estar registrado y conectado para ver este vínculo]
[Tienes que estar registrado y conectado para ver este vínculo]
[Tienes que estar registrado y conectado para ver este vínculo]
[Tienes que estar registrado y conectado para ver este vínculo]
[Tienes que estar registrado y conectado para ver este vínculo]


Código:
http://www.megaupload.com/?d=L5W8XQXS
http://www.megaupload.com/?d=1H7LV77Z
http://www.megaupload.com/?d=9D4EC5SN
http://www.megaupload.com/?d=9DM4763Z
http://www.megaupload.com/?d=U4C1OAZL
http://www.megaupload.com/?d=8S039AFH
http://www.megaupload.com/?d=4BQ09KJ8
http://www.megaupload.com/?d=LGXBZ89Z
http://www.megaupload.com/?d=1M428OIT
http://www.megaupload.com/?d=5GX63MPE
http://www.megaupload.com/?d=FWVYOHNH
http://www.megaupload.com/?d=DK2I872H
http://www.megaupload.com/?d=UUIQCED8
http://www.megaupload.com/?d=JWXMZ8KE
http://www.megaupload.com/?d=4ETTZYXX
http://www.megaupload.com/?d=ZM1R8L9G
http://www.megaupload.com/?d=KYP6VEA0


UNIR CON WINRAR


[Tienes que estar registrado y conectado para ver este vínculo]
avatar
dmh
Uploader de Allsports-tv.com
Uploader de Allsports-tv.com

Cantidad de envíos : 15091
Fecha de inscripción : 20/04/2012

Re: Ciclismo - Omloop Het Nieuwsblad 2011 (Het Volk) Teledeporte

Mensaje por dmh el Miér Nov 09, 2016 12:18 am

[Tienes que estar registrado y conectado para ver esa imagen]


Fecha: 26/02/2011
WEBRip: TVE
Idioma: CASTELLANO
Video: AVC
Audio: AAC
Resolución: 854x480
Duración: 153 MIN
Tamaño: 1,36 GB

Créditos: Rob Manzano
Uploader: dmh

CRÓNICA

[Tienes que estar registrado y conectado para ver esa imagen]

[Tienes que estar registrado y conectado para ver esa imagen]

[Tienes que estar registrado y conectado para ver este vínculo]
[Tienes que estar registrado y conectado para ver este vínculo]

Saludos
avatar
betikillo79
Uploader de Allsports-tv.com
Uploader de Allsports-tv.com

Cantidad de envíos : 16154
Fecha de inscripción : 26/11/2009
Localización : *Julio Maldonado, "Maldini eres dios!!!
Edad : 38

Re: Ciclismo - Omloop Het Nieuwsblad 2011 (Het Volk) Teledeporte

Mensaje por betikillo79 el Dom Nov 20, 2016 1:25 am

gracias por esta etapa ya la tengo descargando. tengo muy buena ortografia. para eso estudie en la pablo de olavide de sevilla. saludos Laughing

    Fecha y hora actual: Dom Sep 24, 2017 10:29 pm